<<Back/Retour

FFMpeg : dis-moi tout !

Le 6 janvier 2008

Ah ouais, comme je vois que les visites tournent principalement autour de ffmpeg (bande de techos...), un petit billet sur : Comment obtenir des infos sur une vidéo grace àffmpeg.

Bon, on le sait, ffmpeg permet de connaitre plein de chose sur sa vidéo grâce àla commande :
- ffmpeg -i monfichiervideo

Mais c’est quoi tout ce charabias ?

ffmpeg -i monfichier.avi
FFmpeg version SVN-rUNKNOWN, Copyright (c) 2000-2004 Fabrice Bellard
 configuration:  --enable-gpl --enable-pp --enable-pthreads --enable-vorbis --enable-libogg --enable-a52 --enable-dts --enable-libgsm --enable-dc1394 --disable-debug --enable-shared --prefix=/usr
 libavutil version: 0d.49.0.0
 libavcodec version: 0d.51.11.0
 libavformat version: 0d.50.5.0
 built on Jan 28 2007 22:48:38, gcc: 4.1.2 20070106 (prerelease) (Ubuntu 4.1.1-21ubuntu7)
Input #0, avi, from 'monfichier.avi':
 Duration: 00:19:53.1, start: 0.000000, bitrate: 1297 kb/s
 Stream #0.0: Video: mpeg4, yuv420p, 512x288, 29.98 fps(r)
 Stream #0.1: Audio: mp3, 48000 Hz, stereo, 96 kb/s
Must supply at least one output file

La seule chose qui nous intéresse c’est partir de :

Input #0, avi, from 'monfichier.avi':
 Duration: 00:19:53.1, start: 0.000000, bitrate: 1297 kb/s
 Stream #0.0: Video: mpeg4, yuv420p, 512x288, 29.98 fps(r)
 Stream #0.1: Audio: mp3, 48000 Hz, stereo, 96 kb/s

Tout le reste est du blabla pour dire qui l’a compilé, avec quelle config, ...

Bon alors, qu’est ce que ça nous dit ?

Input #0, avi, from 'monfichier.avi':

Que le premier flux est de type avi (un conteneur vidéo).

 Duration: 00:19:53.1, start: 0.000000, bitrate: 1297 kb/s

Que la durée de la vidéo est de 19 minutes 53 secondes et une image, que la lecture commence àla première image et que le bitrate est de 1M297 par seconde.

 Stream #0.0: Video: mpeg4, yuv420p, 512x288, 29.98 fps(r)

Qu’il y a deux flux, le premier étant un flux vidéo encodé en mpeg4 yuv420p, que la taille de l’image est de 512 pixels sur 288 pixels et que la cadence des images est de 29,98 images par seconde.

 Stream #0.1: Audio: mp3, 48000 Hz, stereo, 96 kb/s

Que le second flux est de type audio encodé en mp3 en 48 KHz, en stéréo avec un débit de 96 kbits par seconde.

Et ben voilà, on sait tout...

Mais ce n’est pas parce que ffmpeg a la faveur des internautes du site qu’il n’y aura que des billets aussi techniques...


- Automatiser FFMpeg
- FFMpeg : dis-moi tout !
- FFmpeg - la vidéo expliquée
- FFMpeg par l’exemple

<<Back/Retour